#TITLE:Enormous Penis;
#SUBTITLE:;
#ARTIST:Da Vinci's Notebook;
#TITLETRANSLIT:;
#SUBTITLETRANSLIT:;
#ARTISTTRANSLIT:;
#CREDIT:;
#BANNER:enormous-bn.png;
#BACKGROUND:enormous.png;
#LYRICSPATH:;
#CDTITLE:!sfTitle.png;
#MUSIC:enormouspenis.mp3;
#OFFSET:-21.857;
#SAMPLESTART:21.100;
#SAMPLELENGTH:28.000;
#SELECTABLE:YES;
#BPMS:0.000=119.000;
#STOPS:;
#BGCHANGES:;
// cache tags:
#FIRSTBEAT:0.000;
#LASTBEAT:104.750;
#SONGFILENAME:Songs/Music V.I.P ^_^/Enormous Penis/enormous.sm;
#HASMUSIC:1;
#HASBANNER:1;
#MUSICLENGTH:75.474;
// end cache tags

//---------------dance-single - ----------------
#NOTES:
     dance-single:
     :
     Hard:
     8:
     0.316,0.467,0.146,0.437,0.364,123.000,11.000,33.000,0.000,0.000:
0001
0000
0000
1000
0001
0000
0000
1000
0001
0000
0000
0001
0000
0000
0000
2002
,
0000
3003
0000
2002
0000
0000
0000
3003
0000
0000
0000
0000
1000
0000
0000
0010
,
0100
0000
0000
0010
0100
0000
0000
0010
0100
0000
0000
0010
0100
0000
0000
0100
,
0000
0000
0000
0001
0100
0000
0000
0000
0001
0000
0000
0010
0001
0000
0000
0010
,
0001
0000
0000
0010
0001
0000
0000
0010
0001
0000
0000
0001
0000
0000
0000
2002
,
0000
3003
0000
2002
0000
0000
0000
3003
0000
0000
0000
0000
1000
0000
0000
0010
,
0100
0000
0000
0010
0100
0000
0000
0010
0100
0000
0000
0010
0100
0000
0000
0100
,
0000
0000
0000
0000
0000
0000
0000
0000
0000
0000
0000
0001
0100
0000
0000
0001
,
0100
0100
0100
0100
,
0010
0010
0010
0010
,
1000
0000
0000
0000
1000
0000
0000
0000
0001
0000
0000
0001
0100
0000
0000
0020
,
0000
0000
0000
0000
0000
0030
0020
0000
0000
0030
0000
0000
0000
0000
0000
0000
,
0000
0000
1000
1000
0000
0000
1000
0000
0000
0000
0001
0001
0000
0000
0000
0000
,
2000
0000
3200
0000
0320
0000
0032
0003
0000
0000
0000
0000
,
1000
0000
0000
0010
0100
0000
0000
0010
0100
0000
0000
0010
0100
0000
0000
0100
,
0000
0000
0000
1000
1000
0000
0000
1000
1000
0000
0000
1000
0000
0000
0000
0000
,
0001
0000
0000
0010
0100
0000
0000
0010
0100
0000
0000
0010
0100
0000
0000
0100
,
0000
0000
0000
0001
0001
0000
0000
0001
0001
0000
0000
0001
0000
0000
0000
0000
,
1000
0000
0000
0010
0100
0000
0000
0010
0100
0000
0000
0010
0100
0000
0000
0100
,
0000
0000
0000
0010
0000
0000
0010
0010
0010
0010
0000
0000
0000
0000
0000
0000
,
0220
0330
0220
0330
0220
0330
0220
0330
,
0220
0330
0000
0220
0330
0000
0000
0000
0000
0000
0020
0000
0000
0000
0230
0000
,
0000
0000
0000
0000
,
0320
0000
0000
0000
,
0230
0000
0000
0000
,
0320
0000
0000
0100
0100
0000
0000
0100
0030
0000
0000
0000
2002
0000
0000
0000
,
0000
3003
0000
0000
0000
0000
0000
0000
;

//---------------dance-double - ----------------
#NOTES:
     dance-double:
     :
     Hard:
     2:
     1.000,1.000,1.000,0.106,1.000,849.000,849.000,8.000,1992.000,238.000:
00011000
00011000
00011000
00011000
00011000
00100100
00100100
00100100
00100100
00100100
00100100
00100100
00100100
00100100
00100100
00100100
00111100
00011000
00011000
00011000
00011000
00011000
00011000
00011000
00011000
00011000
00011000
00011000
00011000
00011000
00011000
00011000
00011000
00011000
00011000
00011000
00011000
00011000
00011000
00011000
00011000
00011000
00011000
00011000
00011000
00011000
00011000
00011000
01100110
01100110
01100110
01100110
01100110
10011001
10011001
10011001
10011001
10011001
10011001
10011001
01100110
01100110
01100110
01100110
,
011MM110
000MM000
000MM000
000MM000
000MM000
00M00M00
00M00M00
00M00M00
00M00M00
00M00M00
00M00M00
00M00M00
00M00M00
00M00M00
00M00M00
00M00M00
00MMMM00
000MM000
000MM000
000MM000
000MM000
000MM000
000MM000
000MM000
000MM000
000MM000
000MM000
000MM000
000MM000
000MM000
000MM000
000MM000
000MM000
000MM000
000MM000
000MM000
000MM000
000MM000
000MM000
000MM000
000MM000
000MM000
000MM000
000MM000
000MM000
000MM000
000MM000
000MM000
0MM00MM0
0MM00MM0
0MM00MM0
0MM00MM0
0MM00MM0
M00MM00M
M00MM00M
M00MM00M
M00MM00M
M00MM00M
M00MM00M
M00MM00M
0MM00MM0
0MM00MM0
0MM00MM0
0MM00MM0
,
0MM11MM0
00011000
00011000
00011000
00011000
00100100
00100100
00100100
00100100
00100100
00100100
00100100
00100100
00100100
00100100
00100100
00111100
00011000
00011000
00011000
00011000
00011000
00011000
00011000
00011000
00011000
00011000
00011000
00011000
00011000
00011000
00011000
00011000
00011000
00011000
00011000
00011000
00011000
00011000
00011000
00011000
00011000
00011000
00011000
00011000
00011000
00011000
00011000
01100110
01100110
01100110
01100110
01100110
10011001
10011001
10011001
10011001
10011001
10011001
10011001
01100110
01100110
01100110
01100110
,
011MM110
000MM000
000MM000
000MM000
000MM000
00M00M00
00M00M00
00M00M00
00M00M00
00M00M00
00M00M00
00M00M00
00M00M00
00M00M00
00M00M00
00M00M00
00MMMM00
000MM000
000MM000
000MM000
000MM000
000MM000
000MM000
000MM000
000MM000
000MM000
000MM000
000MM000
000MM000
000MM000
000MM000
000MM000
000MM000
000MM000
000MM000
000MM000
000MM000
000MM000
000MM000
000MM000
000MM000
000MM000
000MM000
000MM000
000MM000
000MM000
000MM000
000MM000
0MM00MM0
0MM00MM0
0MM00MM0
0MM00MM0
0MM00MM0
M00MM00M
M00MM00M
M00MM00M
M00MM00M
M00MM00M
M00MM00M
M00MM00M
0MM00MM0
0MM00MM0
0MM00MM0
0MM00MM0
,
0MM11MM0
00011000
00011000
00011000
00011000
00100100
00100100
00100100
00100100
00100100
00100100
00100100
00100100
00100100
00100100
00100100
00111100
00011000
00011000
00011000
00011000
00011000
00011000
00011000
00011000
00011000
00011000
00011000
00011000
00011000
00011000
00011000
00011000
00011000
00011000
00011000
00011000
00011000
00011000
00011000
00011000
00011000
00011000
00011000
00011000
00011000
00011000
00011000
01100110
01100110
01100110
01100110
01100110
10011001
10011001
10011001
10011001
10011001
10011001
10011001
01100110
01100110
01100110
01100110
,
011MM110
000MM000
000MM000
000MM000
000MM000
00M00M00
00M00M00
00M00M00
00M00M00
00M00M00
00M00M00
00M00M00
00M00M00
00M00M00
00M00M00
00M00M00
00MMMM00
000MM000
000MM000
000MM000
000MM000
000MM000
000MM000
000MM000
000MM000
000MM000
000MM000
000MM000
000MM000
000MM000
000MM000
000MM000
000MM000
000MM000
000MM000
000MM000
000MM000
000MM000
000MM000
000MM000
000MM000
000MM000
000MM000
000MM000
000MM000
000MM000
000MM000
000MM000
0MM00MM0
0MM00MM0
0MM00MM0
0MM00MM0
0MM00MM0
M00MM00M
M00MM00M
M00MM00M
M00MM00M
M00MM00M
M00MM00M
M00MM00M
0MM00MM0
0MM00MM0
0MM00MM0
0MM00MM0
,
0MM11MM0
00011000
00011000
00011000
00011000
00100100
00100100
00100100
00100100
00100100
00100100
00100100
00100100
00100100
00100100
00100100
00111100
00011000
00011000
00011000
00011000
00011000
00011000
00011000
00011000
00011000
00011000
00011000
00011000
00011000
00011000
00011000
00011000
00011000
00011000
00011000
00011000
00011000
00011000
00011000
00011000
00011000
00011000
00011000
00011000
00011000
00011000
00011000
01100110
01100110
01100110
01100110
01100110
10011001
10011001
10011001
10011001
10011001
10011001
10011001
01100110
01100110
01100110
01100110
,
011MM110
000MM000
000MM000
000MM000
000MM000
00M00M00
00M00M00
00M00M00
00M00M00
00M00M00
00M00M00
00M00M00
00M00M00
00M00M00
00M00M00
00M00M00
00MMMM00
000MM000
000MM000
000MM000
000MM000
000MM000
000MM000
000MM000
000MM000
000MM000
000MM000
000MM000
000MM000
000MM000
000MM000
000MM000
000MM000
000MM000
000MM000
000MM000
000MM000
000MM000
000MM000
000MM000
000MM000
000MM000
000MM000
000MM000
000MM000
000MM000
000MM000
000MM000
0MM00MM0
0MM00MM0
0MM00MM0
0MM00MM0
0MM00MM0
M00MM00M
M00MM00M
M00MM00M
M00MM00M
M00MM00M
M00MM00M
M00MM00M
0MM00MM0
0MM00MM0
0MM00MM0
0MM00MM0
,
0MM11MM0
00011000
00011000
00011000
00011000
00100100
00100100
00100100
00100100
00100100
00100100
00100100
00100100
00100100
00100100
00100100
00111100
00011000
00011000
00011000
00011000
00011000
00011000
00011000
00011000
00011000
00011000
00011000
00011000
00011000
00011000
00011000
00011000
00011000
00011000
00011000
00011000
00011000
00011000
00011000
00011000
00011000
00011000
00011000
00011000
00011000
00011000
00011000
01100110
01100110
01100110
01100110
01100110
10011001
10011001
10011001
10011001
10011001
10011001
10011001
01100110
01100110
01100110
01100110
,
011MM110
000MM000
000MM000
000MM000
000MM000
00M00M00
00M00M00
00M00M00
00M00M00
00M00M00
00M00M00
00M00M00
00M00M00
00M00M00
00M00M00
00M00M00
00MMMM00
000MM000
000MM000
000MM000
000MM000
000MM000
000MM000
000MM000
000MM000
000MM000
000MM000
000MM000
000MM000
000MM000
000MM000
000MM000
000MM000
000MM000
000MM000
000MM000
000MM000
000MM000
000MM000
000MM000
000MM000
000MM000
000MM000
000MM000
000MM000
000MM000
000MM000
000MM000
0MM00MM0
0MM00MM0
0MM00MM0
0MM00MM0
0MM00MM0
M00MM00M
M00MM00M
M00MM00M
M00MM00M
M00MM00M
M00MM00M
M00MM00M
0MM00MM0
0MM00MM0
0MM00MM0
0MM00MM0
,
0MM11MM0
00011000
00011000
00011000
00011000
00100100
00100100
00100100
00100100
00100100
00100100
00100100
00100100
00100100
00100100
00100100
00111100
00011000
00011000
00011000
00011000
00011000
00011000
00011000
00011000
00011000
00011000
00011000
00011000
00011000
00011000
00011000
00011000
00011000
00011000
00011000
00011000
00011000
00011000
00011000
00011000
00011000
00011000
00011000
00011000
00011000
00011000
00011000
01100110
01100110
01100110
01100110
01100110
10011001
10011001
10011001
10011001
10011001
10011001
10011001
01100110
01100110
01100110
01100110
,
011MM110
000MM000
000MM000
000MM000
000MM000
00M00M00
00M00M00
00M00M00
00M00M00
00M00M00
00M00M00
00M00M00
00M00M00
00M00M00
00M00M00
00M00M00
00MMMM00
000MM000
000MM000
000MM000
000MM000
000MM000
000MM000
000MM000
000MM000
000MM000
000MM000
000MM000
000MM000
000MM000
000MM000
000MM000
000MM000
000MM000
000MM000
000MM000
000MM000
000MM000
000MM000
000MM000
000MM000
000MM000
000MM000
000MM000
000MM000
000MM000
000MM000
000MM000
0MM00MM0
0MM00MM0
0MM00MM0
0MM00MM0
0MM00MM0
M00MM00M
M00MM00M
M00MM00M
M00MM00M
M00MM00M
M00MM00M
M00MM00M
0MM00MM0
0MM00MM0
0MM00MM0
0MM00MM0
,
0MM11MM0
00011000
00011000
00011000
00011000
00100100
00100100
00100100
00100100
00100100
00100100
00100100
00100100
00100100
00100100
00100100
00111100
00011000
00011000
00011000
00011000
00011000
00011000
00011000
00011000
00011000
00011000
00011000
00011000
00011000
00011000
00011000
00011000
00011000
00011000
00011000
00011000
00011000
00011000
00011000
00011000
00011000
00011000
00011000
00011000
00011000
00011000
00011000
01100110
01100110
01100110
01100110
01100110
10011001
10011001
10011001
10011001
10011001
10011001
10011001
01100110
01100110
01100110
01100110
,
011MM110
000MM000
000MM000
000MM000
000MM000
00M00M00
00M00M00
00M00M00
00M00M00
00M00M00
00M00M00
00M00M00
00M00M00
00M00M00
00M00M00
00M00M00
00MMMM00
000MM000
000MM000
000MM000
000MM000
000MM000
000MM000
000MM000
000MM000
000MM000
000MM000
000MM000
000MM000
000MM000
000MM000
000MM000
000MM000
000MM000
000MM000
000MM000
000MM000
000MM000
000MM000
000MM000
000MM000
000MM000
000MM000
000MM000
000MM000
000MM000
000MM000
000MM000
0MM00MM0
0MM00MM0
0MM00MM0
0MM00MM0
0MM00MM0
M00MM00M
M00MM00M
M00MM00M
M00MM00M
M00MM00M
M00MM00M
M00MM00M
0MM00MM0
0MM00MM0
0MM00MM0
0MM00MM0
,
0MM11MM0
00011000
00011000
00011000
00011000
00100100
00100100
00100100
00100100
00100100
00100100
00100100
00100100
00100100
00100100
00100100
00111100
00011000
00011000
00011000
00011000
00011000
00011000
00011000
00011000
00011000
00011000
00011000
00011000
00011000
00011000
00011000
00011000
00011000
00011000
00011000
00011000
00011000
00011000
00011000
00011000
00011000
00011000
00011000
00011000
00011000
00011000
00011000
01100110
01100110
01100110
01100110
01100110
10011001
10011001
10011001
10011001
10011001
10011001
10011001
01100110
01100110
01100110
01100110
,
011MM110
000MM000
000MM000
000MM000
000MM000
00M00M00
00M00M00
00M00M00
00M00M00
00M00M00
00M00M00
00M00M00
00M00M00
00M00M00
00M00M00
00M00M00
00MMMM00
000MM000
000MM000
000MM000
000MM000
000MM000
000MM000
000MM000
000MM000
000MM000
000MM000
000MM000
000MM000
000MM000
000MM000
000MM000
000MM000
000MM000
000MM000
000MM000
000MM000
000MM000
000MM000
000MM000
000MM000
000MM000
000MM000
000MM000
000MM000
000MM000
000MM000
000MM000
0MM00MM0
0MM00MM0
0MM00MM0
0MM00MM0
0MM00MM0
M00MM00M
M00MM00M
M00MM00M
M00MM00M
M00MM00M
M00MM00M
M00MM00M
0MM00MM0
0MM00MM0
0MM00MM0
0MM00MM0
,
0MM11MM0
00011000
00011000
00011000
00011000
00100100
00100100
00100100
00100100
00100100
00100100
00100100
00100100
00100100
00100100
00100100
00111100
00011000
00011000
00011000
00011000
00011000
00011000
00011000
00011000
00011000
00011000
00011000
00011000
00011000
00011000
00011000
00011000
00011000
00011000
00011000
00011000
00011000
00011000
00011000
00011000
00011000
00011000
00011000
00011000
00011000
00011000
00011000
01100110
01100110
01100110
01100110
01100110
10011001
10011001
10011001
10011001
10011001
10011001
10011001
01100110
01100110
01100110
01100110
,
011MM110
000MM000
000MM000
000MM000
000MM000
00M00M00
00M00M00
00M00M00
00M00M00
00M00M00
00M00M00
00M00M00
00M00M00
00M00M00
00M00M00
00M00M00
00MMMM00
000MM000
000MM000
000MM000
000MM000
000MM000
000MM000
000MM000
000MM000
000MM000
000MM000
000MM000
000MM000
000MM000
000MM000
000MM000
000MM000
000MM000
000MM000
000MM000
000MM000
000MM000
000MM000
000MM000
000MM000
000MM000
000MM000
000MM000
000MM000
000MM000
000MM000
000MM000
0MM00MM0
0MM00MM0
0MM00MM0
0MM00MM0
0MM00MM0
M00MM00M
M00MM00M
M00MM00M
M00MM00M
M00MM00M
M00MM00M
M00MM00M
0MM00MM0
0MM00MM0
0MM00MM0
0MM00MM0
,
0MM11MM0
00011000
00011000
00011000
00011000
00100100
00100100
00100100
00100100
00100100
00100100
00100100
00100100
00100100
00100100
00100100
00111100
00011000
00011000
00011000
00011000
00011000
00011000
00011000
00011000
00011000
00011000
00011000
00011000
00011000
00011000
00011000
00011000
00011000
00011000
00011000
00011000
00011000
00011000
00011000
00011000
00011000
00011000
00011000
00011000
00011000
00011000
00011000
01100110
01100110
01100110
01100110
01100110
10011001
10011001
10011001
10011001
10011001
10011001
10011001
01100110
01100110
01100110
01100110
,
011MM110
000MM000
000MM000
000MM000
000MM000
00M00M00
00M00M00
00M00M00
00M00M00
00M00M00
00M00M00
00M00M00
00M00M00
00M00M00
00M00M00
00M00M00
00MMMM00
000MM000
000MM000
000MM000
000MM000
000MM000
000MM000
000MM000
000MM000
000MM000
000MM000
000MM000
000MM000
000MM000
000MM000
000MM000
000MM000
000MM000
000MM000
000MM000
000MM000
000MM000
000MM000
000MM000
000MM000
000MM000
000MM000
000MM000
000MM000
000MM000
000MM000
000MM000
0MM00MM0
0MM00MM0
0MM00MM0
0MM00MM0
0MM00MM0
M00MM00M
M00MM00M
M00MM00M
M00MM00M
M00MM00M
M00MM00M
M00MM00M
0MM00MM0
0MM00MM0
0MM00MM0
0MM00MM0
,
0MM11MM0
00011000
00011000
00011000
00011000
00100100
00100100
00100100
00100100
00100100
00100100
00100100
00100100
00100100
00100100
00100100
00111100
00011000
00011000
00011000
00011000
00011000
00011000
00011000
00011000
00011000
00011000
00011000
00011000
00011000
00011000
00011000
00011000
00011000
00011000
00011000
00011000
00011000
00011000
00011000
00011000
00011000
00011000
00011000
00011000
00011000
00011000
00011000
01100110
01100110
01100110
01100110
01100110
10011001
10011001
10011001
10011001
10011001
10011001
10011001
01100110
01100110
01100110
01100110
,
011MM110
000MM000
000MM000
000MM000
000MM000
00M00M00
00M00M00
00M00M00
00M00M00
00M00M00
00M00M00
00M00M00
00M00M00
00M00M00
00M00M00
00M00M00
00MMMM00
000MM000
000MM000
000MM000
000MM000
000MM000
000MM000
000MM000
000MM000
000MM000
000MM000
000MM000
000MM000
000MM000
000MM000
000MM000
000MM000
000MM000
000MM000
000MM000
000MM000
000MM000
000MM000
000MM000
000MM000
000MM000
000MM000
000MM000
000MM000
000MM000
000MM000
000MM000
0MM00MM0
0MM00MM0
0MM00MM0
0MM00MM0
0MM00MM0
M00MM00M
M00MM00M
M00MM00M
M00MM00M
M00MM00M
M00MM00M
M00MM00M
0MM00MM0
0MM00MM0
0MM00MM0
0MM00MM0
,
0MM11MM0
00011000
00011000
00011000
00011000
00100100
00100100
00100100
00100100
00100100
00100100
00100100
00100100
00100100
00100100
00100100
00111100
00011000
00011000
00011000
00011000
00011000
00011000
00011000
00011000
00011000
00011000
00011000
00011000
00011000
00011000
00011000
00011000
00011000
00011000
00011000
00011000
00011000
00011000
00011000
00011000
00011000
00011000
00011000
00011000
00011000
00011000
00011000
01100110
01100110
01100110
01100110
01100110
10011001
10011001
10011001
10011001
10011001
10011001
10011001
01100110
01100110
01100110
01100110
,
011MM110
000MM000
000MM000
000MM000
000MM000
00M00M00
00M00M00
00M00M00
00M00M00
00M00M00
00M00M00
00M00M00
00M00M00
00M00M00
00M00M00
00M00M00
00MMMM00
000MM000
000MM000
000MM000
000MM000
000MM000
000MM000
000MM000
000MM000
000MM000
000MM000
000MM000
000MM000
000MM000
000MM000
000MM000
000MM000
000MM000
000MM000
000MM000
000MM000
000MM000
000MM000
000MM000
000MM000
000MM000
000MM000
000MM000
000MM000
000MM000
000MM000
000MM000
0MM00MM0
0MM00MM0
0MM00MM0
0MM00MM0
0MM00MM0
M00MM00M
M00MM00M
M00MM00M
M00MM00M
M00MM00M
M00MM00M
M00MM00M
0MM00MM0
0MM00MM0
0MM00MM0
0MM00MM0
,
0MM11MM0
00011000
00011000
00011000
00011000
00100100
00100100
00100100
00100100
00100100
00100100
00100100
00100100
00100100
00100100
00100100
00111100
00011000
00011000
00011000
00011000
00011000
00011000
00011000
00011000
00011000
00011000
00011000
00011000
00011000
00011000
00011000
00011000
00011000
00011000
00011000
00011000
00011000
00011000
00011000
00011000
00011000
00011000
00011000
00011000
00011000
00011000
00011000
01100110
01100110
01100110
01100110
01100110
10011001
10011001
10011001
10011001
10011001
10011001
10011001
01100110
01100110
01100110
01100110
,
11111111
00000000
00000000
11111111
11111111
00000000
00000000
11111111
00000000
00000000
00000000
00000000
22222222
00000000
00000000
00000000
,
00000000
00000000
00000000
33333333
00000000
00000000
00000000
00000000
00000000
00000000
00000000
00000000
00000000
00000000
00000000
00000000
;

//---------------dance-single - Copied from----------------
#NOTES:
     dance-single:
     Copied from:
     Challenge:
     15:
     1.000,1.000,0.185,0.437,1.000,618.000,14.000,33.000,277.000,3.000:
0001
0000
0010
0000
0001
0000
0010
0000
0001
0000
0010
0000
1M0M
0000
0010
0000
0001
0000
0010
0000
0001
0000
0010
0000
0001
0000
0010
0000
1M0M
0000
0010
0000
0001
0000
0010
0000
0001
0000
0010
0000
0001
0000
0010
0000
0001
0000
0010
0000
0001
0000
0010
0000
0001
0000
0010
0000
0001
0000
0010
0000
2002
0MM0
0MM0
0MM0
,
0MM0
0MM0
0MM0
0MM0
3MM3
0MM0
0MM0
0MM0
0MM0
0MM0
0MM0
0MM0
2MM2
0MM0
0MM0
0MM0
0MM0
0MM0
0MM0
0MM0
0MM0
0MM0
0MM0
0MM0
0MM0
0MM0
0MM0
0MM0
3MM3
0000
0000
0000
0000
0000
0000
0000
0000
0000
0000
0000
0000
0000
0000
0000
0000
0000
0000
0000
1000
0000
0100
0000
1000
0000
0100
0000
1000
0000
0100
0000
MM10
0000
0001
0000
,
0100
0001
0100
0001
0100
0001
MM10
0001
0100
0001
0100
0001
0100
0001
MM10
0001
0100
0001
0100
0001
0100
0001
MM10
0001
0100
0001
0100
0001
0100
0001
0100
0010
,
0100
0010
0100
0010
0100
0010
MM01
0010
0100
0010
0100
0010
0100
0010
0100
0010
1M00
0001
1000
0001
1000
0001
M010
0100
0001
0100
0001
0100
0001
0100
M01M
0100
,
0001
0000
0100
0000
0001
0000
0100
0000
0001
0000
0100
0000
M01M
0000
0100
0000
0001
0000
0100
0000
0001
0000
0100
0000
0001
0000
0100
0000
M01M
0000
0100
0000
0001
0000
0100
0000
0001
0000
0100
0000
0001
0000
0100
0000
0001
0000
0100
0000
0001
0000
0100
0000
0001
0000
0100
0000
0001
0000
0100
0000
2002
0MM0
0MM0
0MM0
,
0MM0
0MM0
0MM0
0MM0
3MM3
0MM0
0MM0
0MM0
0MM0
0MM0
0MM0
0MM0
2MM2
0MM0
0MM0
0MM0
0MM0
0MM0
0MM0
0MM0
0MM0
0MM0
0MM0
0MM0
0MM0
0MM0
0MM0
0MM0
3MM3
0000
0000
0000
0000
0000
0000
0000
0000
0000
0000
0000
0000
0000
0000
0000
0000
0000
0000
0000
1000
0000
0100
0000
1000
0000
0100
0000
1000
0000
0100
0000
M010
0000
0001
0000
,
0100
0001
0100
0001
0100
0001
MM10
0001
0100
0001
0100
0001
0100
0001
MM10
0001
0100
0001
0100
0001
0100
0001
MM10
0001
0100
0001
0100
0001
0100
0001
0100
0010
,
0100
1000
0100
1000
0100
1000
0100
1000
0100
1000
0100
1000
0100
1000
0100
1000
0100
1000
0100
1000
0100
1000
0MM1
1000
0100
1000
0100
1000
0100
1000
0MM1
1000
,
0100
1000
0100
1000
0100
1000
0100
1000
0100
0010
0001
0010
0001
0010
0001
0010
0100
0010
0100
0010
0100
0010
0100
0010
0100
1000
0100
1000
0100
1000
0100
1000
,
0010
1000
0010
1000
0010
1000
0010
1000
0010
0100
0010
0100
0010
0100
0010
0100
0010
1000
0010
1000
0010
1000
0010
1000
0010
0100
0010
0100
0010
0100
0010
0100
,
1000
0001
1000
0001
1000
0001
1000
0001
1000
0010
1000
0010
1000
0010
1000
0010
0001
0010
0001
0010
0001
0010
0001
0010
0100
0001
1000
0001
1000
0001
0M20
0000
,
0100
0100
0100
0100
0100
0130
0M20
0100
0100
0130
0000
0000
0000
0000
0000
0000
,
0000
0000
0000
0000
0000
0000
0000
0000
0000
0000
0000
0000
0000
0000
0000
0000
0000
0000
0000
0000
0000
0000
0000
0000
1000
0000
0000
0100
0010
0000
0000
0000
0000
0000
0000
0000
1000
0000
0000
0100
MM10
0000
00M0
0000
0000
0000
0000
0000
0000
0000
0000
0000
0000
0000
0000
0000
0000
0000
0000
0000
0000
0000
0000
0000
0000
0000
0000
0000
0000
0000
0000
0000
1000
0000
0000
0100
0010
0000
0000
0000
0000
0000
0000
0000
0000
0000
0000
0000
0000
0000
0000
0000
0000
0000
0000
0000
0000
0000
0000
0000
0000
0000
0000
0000
0000
0000
0000
0000
0000
0000
0000
0000
0000
0000
0000
0000
0000
0000
0000
0000
0001
0000
0000
0010
0100
0000
0000
0000
0000
0000
0000
0000
0001
0000
0000
001M
01M0
0000
0M00
0000
0000
0000
0000
0000
0000
0000
0000
0000
0000
0000
0000
0000
0000
0000
0000
0000
0000
0000
0000
0000
0000
0000
0000
0000
0000
0000
0000
0000
0000
0000
0000
0000
0000
0000
0000
0000
0000
0000
0000
0000
0000
0000
0000
0000
0000
0000
0000
0000
0000
0000
0000
0000
,
2M00
0100
0100
0100
32M0
0010
0010
0010
032M
0001
0001
0001
M032
1000
1003
0000
0000
0000
0000
0000
0000
0000
0000
0000
,
1000
0001
1000
0001
1000
0001
MM10
0001
M1M0
0001
1000
0001
1000
0001
MM10
0001
M1M0
0001
1000
0001
1000
0001
MM10
0001
M1M0
0001
1000
0001
1000
0001
0100
0001
,
0100
0000
0000
0000
0000
0000
0001
0000
0000
0000
0000
0000
0100
0000
0000
0000
0000
0000
0001
0000
0000
0000
0000
0000
0100
0000
0000
0000
0000
0000
0001
0000
0000
0000
0000
0000
1000
0000
0000
0010
0001
0000
0000
0000
0000
0000
0000
0000
1000
0000
0000
M010
00M1
0000
000M
0000
0000
0000
0000
0000
0000
0000
0000
0000
0000
0000
0000
0000
0000
0000
0000
0000
0000
0000
0000
0000
0000
0000
0000
0000
0000
0000
0000
0000
1000
0000
0000
0001
0100
0000
0000
0000
0000
0000
0000
0000
1000
0000
0000
M001
010M
0000
0M00
0000
0000
0000
0000
0000
0000
0000
0000
0000
0000
0000
0000
0000
0000
0000
0000
0000
0000
0000
0000
0000
0000
0000
0000
0000
0000
0000
0000
0000
1000
0000
0000
0100
0001
0000
0000
0000
0000
0000
0000
0000
0000
0000
0000
0000
0000
0000
0000
0000
0000
0000
0000
0000
0000
0000
0000
0000
0000
0000
0000
0000
0000
0000
0000
0000
0000
0000
0000
0000
0000
0000
0000
0000
0000
0000
0000
0000
0000
0000
0000
0000
0000
0000
0000
0000
0000
0000
0000
0000
,
1000
0001
1000
0001
1000
0001
MM10
0001
M1M0
0001
1000
0001
1000
0001
MM10
0001
M1M0
0001
1000
0001
1000
0001
MM10
0001
M1M0
0001
1000
0001
1000
0001
0100
0001
,
0100
0000
0000
0000
0000
0000
0001
0000
0000
0000
0000
0000
0100
0000
0000
0000
0000
0000
0001
0000
0000
0000
0000
0000
0100
0000
0000
0000
0000
0000
0001
0000
0000
0000
0000
0000
1000
0000
0000
0010
0001
0000
0000
0000
0000
0000
0000
0000
1000
0000
0000
M010
00M1
0000
000M
0000
0000
0000
0000
0000
0000
0000
0000
0000
0000
0000
0000
0000
0000
0000
0000
0000
0000
0000
0000
0000
0000
0000
0000
0000
0000
0000
0000
0000
1000
0000
0000
0001
0100
0000
0000
0000
0000
0000
0000
0000
1000
0000
0000
M001
010M
0000
0M00
0000
0000
0000
0000
0000
0000
0000
0000
0000
0000
0000
0000
0000
0000
0000
0000
0000
0000
0000
0000
0000
0000
0000
0000
0000
0000
0000
0000
0000
1000
0000
0000
0100
0010
0000
0000
0000
0000
0000
0000
0000
0000
0000
0000
0000
0000
0000
0000
0000
0000
0000
0000
0000
0000
0000
0000
0000
0000
0000
0000
0000
0000
0000
0000
0000
0000
0000
0000
0000
0000
0000
0000
0000
0000
0000
0000
0000
0000
0000
0000
0000
0000
0000
0000
0000
0000
0000
0000
0000
,
1000
0001
1000
0001
1000
0001
MM10
0001
M1M0
0001
1000
0001
1000
0001
MM10
0001
M1M0
0001
1000
0001
1000
0001
MM10
0001
M1M0
0001
1000
0001
1000
0001
0100
0001
,
0100
0000
0000
0000
0000
0000
0001
0000
0000
0000
0000
0000
0100
0000
0000
0000
0000
0000
0001
0000
0000
0000
0000
0000
0100
0000
0000
0000
0000
0000
0000
0000
0000
0000
0000
0000
0010
0000
0000
10M0
M001
0000
000M
0000
0000
0000
0000
0000
0000
0000
0000
0000
0000
0000
0000
0000
0000
0000
0000
0000
0000
0000
0000
0000
0000
0000
0000
0000
0000
0000
0000
0000
0010
0000
0000
1000
0001
0000
0000
0000
0000
0000
0000
0000
0010
0000
0000
1000
0001
0000
0000
0000
0000
0000
0000
0000
0010
0000
0000
1000
0001
0000
0000
0000
0000
0000
0000
0000
0010
0000
0000
10M0
M001
0000
000M
0000
0000
0000
0000
0000
0000
0000
0000
0000
0000
0000
0000
0000
0000
0000
0000
0000
0000
0000
0000
0000
0000
0000
0000
0000
0000
0000
0000
0000
0000
0000
0000
0000
0000
0000
0000
0000
0000
0000
0000
0000
0000
0000
0000
0000
0000
0000
0000
0000
0000
0000
0000
0000
0000
0000
0000
0000
0000
0000
0000
0000
0000
0000
0000
0000
0000
0000
0000
0000
0000
0000
0000
0000
0000
0000
0000
0000
,
0220
0330
0220
0330
0220
0330
0220
0330
,
0220
0000
0330
0000
0000
0000
0220
0000
0330
0000
0000
0000
0000
0000
0000
0000
0000
0000
0000
0000
0020
0000
0000
0000
0000
0000
0000
0000
0230
0001
0001
0001
,
0001
0001
0001
0001
0001
0001
0001
0001
0001
0001
0001
0001
0001
0001
0001
0001
0001
0001
0001
0001
0001
0001
0001
0001
0001
0001
0001
0001
0001
0001
0001
0001
,
0321
0001
0001
0001
0001
0001
0001
0001
0001
0001
0001
0001
0001
0001
0001
0001
0001
0001
0001
0001
0001
0001
0001
0001
0001
0001
0001
0001
0001
0001
0001
0001
,
0231
0001
0001
0001
0001
0001
0001
0001
0001
0001
0001
0001
0001
0001
0001
0001
0001
0001
0001
0001
0001
0001
0001
0001
0001
0001
0001
0001
0001
0001
0001
0001
,
0321
0000
0001
0000
0001
0000
0001
0000
0001
0000
0001
0000
0001
0000
0000
0000
0001
0000
0000
0000
0000
0000
0000
0000
0000
0000
0000
0000
0001
0000
0000
0000
0030
0000
0000
0000
0000
0000
0000
0000
0000
0000
0000
0000
0000
0000
0000
0000
2MM2
0MM0
0MM0
0MM0
0MM0
0MM0
0MM0
0MM0
0MM0
0MM0
0MM0
0MM0
0MM0
0MM0
0MM0
0MM0
,
0MM0
0MM0
0MM0
0MM0
0MM0
0MM0
0MM0
0MM0
3MM3
0000
0000
0000
0000
0000
0000
0000
0000
0000
0000
0000
0000
0000
0000
0000
0000
0000
0000
0000
0000
0000
0000
0000
0000
0000
0000
0000
0000
0000
0000
0000
0000
0000
0000
0000
0000
0000
0000
0000
0000
0000
0000
0000
0000
0000
0000
0000
0000
0000
0000
0000
0000
0000
0000
0000
;
